Skocz do zawartości

neokuyorsun.com - Polskie Forum Warezowe uses cookies. Read the Polityka Prywatności for more info. To remove this message, please click the button to the right:    I accept the use of cookies

Witamy na forum neokuyorsun.com ! Tylko u nas każda wstawka zawsze na darmowym serwerze, bez limitów pobierania !

Dołączona grafikaDołączona grafika

Guest Message by DevFuse
 

Zdjęcie
- - - - -

Sabrina, nastoletnia czarownica (1996-2003)


  • Nie możesz napisać tematu
  • Zaloguj się, aby dodać odpowiedź
Brak odpowiedzi do tego tematu

#1 OFFLINE   filesdark

filesdark

    Pionek

  • Użytkownik
  • 14 postów
  • 18 thanks
  • Płeć:Mężczyzna

  • Pip

Napisano 02 wrzesień 2018 - 21:31

Sabrina, nastoletnia czarownica / Sabrina, the Teenage Witch (1996-2003) PL.TVRip.XviD-NN / Lektor PL
 
2KPUe.jpg
 
Sabrina, nastoletnia czarownica / Sabrina, the Teenage Witch (1996-2003) PL.TVRip.XviD-NN / Lektor PL
 
twórca: Nell Scovell
gatunek: Familijny, Fantasy, Komedia
 
Wychowywana przez ciotki Sabrina w dniu swoich szesnastych urodzin dowiaduje się, że jest czarownicą.
 
Przykładowe dane techniczne odcinka:
 
File size : 141 MiB
Duration : 21 min 48 s
Overall bit rate mode : Variable
Overall bit rate : 906 kb/s
Video
Codec ID/Hint : XviD
Duration : 21 min 48 s
Bit rate : 769 kb/s
Width : 720 pixels
Height : 480 pixels
Display aspect ratio : 4:3
Frame rate : 25.000 FPS
Stream size : 120 MiB (85%)
 
Audio
ID : 1
Codec ID/Hint : MP3
Bit rate : 125 kb/s
Channel(s) : 2 channels
Sampling rate : 44.1 kHz
Stream size : 19.5 MiB (14%)
 


  • 1

Thanked by 2 Members:
szoppracz123 , Robik69


  

Użytkownicy przeglądający ten temat: 0

0 użytkowników, 0 gości, 0 anonimowych

Nota Prawna

Wszystkie materiały, które zostały umieszczone na stronie neokuyorsun.com oraz stronach, które są częścią tej strony, zostały umieszczone wyłącznie w celach informacyjnych i edukacyjnych! Nie mogą być wykorzystywane w celach niezgodnych z obowiązującym w Polsce prawem! Autorzy serwisu nie ponoszą żadnej odpowiedzialności z powodu użytkowania i wykorzystywania dostępnych informacji oraz materiałów zawartych na stronie w sposób niezgodny z prawem, w szczególności, gdy spowoduje to szkody osób trzecich. Na tej stronie nie są umieszczone żadne pliki, a jedynie informacje na ich temat (opis, długość, kodek, typ, rodzaj kompresji, suma kontrolna itp.). Pamiętaj, że pliki objęte prawem autorskim wolno zgrywać z sieci jedynie, jeżeli posiada się w domu ich oryginalną wersję, a ściągniętą kopię będzie się traktować jako zapasową!